#TITLE:Don't Be Afraid;
#SUBTITLE:Chocobo Racing;
#ARTIST:Squaresoft;
#TITLETRANSLIT:;
#SUBTITLETRANSLIT:;
#ARTISTTRANSLIT:;
#CREDIT:;
#BANNER:Don't Be Afraid.jpg;
#BACKGROUND:Don't Be Afraid-bg.jpg;
#LYRICSPATH:;
#CDTITLE:!danceguyTitle.png;
#MUSIC:Don't Be Afraid.mp3;
#OFFSET:-0.149;
#SAMPLESTART:40.866;
#SAMPLELENGTH:12.000;
#SELECTABLE:YES;
#BPMS:0.000=172.000;
#STOPS:;
#BGCHANGES:;
// cache tags:
#FIRSTBEAT:0.000;
#LASTBEAT:240.000;
#SONGFILENAME:Songs/Music V.I.P ^_^/Don't Be Afraid (dAnceguy117)/Don't be Afraid.sm;
#HASMUSIC:1;
#HASBANNER:1;
#MUSICLENGTH:95.007;
// end cache tags

//---------------dance-single - heavy----------------
#NOTES:
     dance-single:
     heavy:
     Hard:
     11:
     1.000,1.000,0.379,0.021,1.000,689.000,36.000,2.000,0.000,0.000:
1000
0100
0010
0001
1000
0000
0001
0100
0010
1000
0001
0000
1000
0100
0010
0001
,
1000
0000
0000
0000
1000
0010
0100
0001
1000
0000
0001
0010
0100
1000
0001
0000
,
1000
0010
0100
0001
1000
0000
0000
0000
0001
0010
0100
1000
0100
0000
1000
0010
,
0100
0001
0100
0000
0001
0010
0100
1000
0100
0000
0000
0000
1000
0001
0100
0010
,
0100
0000
0001
1000
0100
0010
0100
0000
1000
0001
0100
0010
0100
0000
0000
0000
,
1000
0010
1000
0010
1000
0000
0010
1000
0010
1000
0010
0000
1000
0010
1000
0010
,
1000
0000
0000
0000
0001
0010
0001
0010
0001
0000
0010
0001
0010
0001
0010
0000
,
0001
0010
0001
0010
0001
0000
0000
0000
1000
0001
1000
0001
1000
0000
0001
1000
,
0001
1000
0001
0000
1000
0001
1000
0001
1000
0000
0000
0000
1000
0100
0010
0001
,
0100
0010
0100
0001
0010
0100
1000
0100
0010
0001
0010
0100
1000
0001
0100
0010
,
1100
0000
0000
0000
1000
0000
0001
0000
0000
0000
1000
0000
0010
1000
0010
1000
,
0001
0000
1010
1010
1010
0110
0110
0110
,
0001
0100
0001
0100
0001
0000
0000
0000
0101
0000
0000
0000
0000
0000
0001
0000
,
0000
0000
1000
0000
0001
0100
0001
0100
0010
0000
0000
0000
1000
0000
0000
0000
,
1010
0000
0000
0000
0110
0000
0000
0000
0100
0001
0100
0001
1000
0000
0000
0000
,
1001
0000
0000
0000
0010
0000
1000
0000
0000
0000
0001
0000
0010
0001
0010
0001
,
1000
0001
0000
0100
0010
0000
2000
0000
,
3002
0000
0000
0000
1003
0001
0100
0010
1000
0000
1000
0100
1000
0000
0100
0000
,
0100
0010
0100
0000
0010
0000
0010
0001
1000
0001
1000
0001
1000
0000
1000
0010
,
1000
0000
0010
0000
0010
0100
0010
0000
0100
0000
0100
0001
1000
0100
0010
0001
,
0100
0000
0001
0010
0001
0000
1000
0000
0010
1000
0010
0000
1000
0001
1000
0001
,
1000
0000
0011
0011
0011
0110
0110
0110
,
1000
0100
1000
0100
1000
0000
0000
0000
1001
0000
1000
0100
1000
0000
0010
0000
,
0100
0001
0100
0000
0001
0010
0001
0010
0001
0000
0000
0000
0010
0000
0001
1000
,
0001
0000
0100
0000
0010
1000
0010
0000
0100
0001
0100
0001
1000
0000
0000
0000
,
1001
0000
0100
0000
0010
0000
1000
0000
0100
0000
0010
0000
0001
1000
0001
1000
,
0001
0010
0100
1000
0100
0010
0100
0010
,
0001
1000
0001
1000
0010
0000
0100
0000
0001
0000
0001
0100
0001
0000
0100
0000
,
0100
0010
0100
0000
0010
0000
0010
1000
0001
0000
0001
1000
0001
0000
0001
0010
,
0001
0000
0010
0000
0010
0100
0010
0000
0100
0000
0100
1000
0100
0010
0001
1000
,
0100
0000
1000
0001
1000
0000
0001
0000
1000
0010
1000
0000
0010
0100
0010
0100
,
0010
1000
0001
0010
0100
0000
1000
0100
1000
0000
0001
0000
1000
0010
1000
0000
,
0010
0100
0010
0100
0001
1000
0100
0010
0001
0000
0001
0100
0001
0000
1000
0000
,
1000
0001
1000
0000
0010
1000
0010
1000
0001
0010
0100
1000
0001
0000
0010
0001
,
1000
0000
1000
0000
0010
1000
0001
0000
1000
0001
1000
0001
1000
0100
0010
0001
,
1000
0000
0001
0100
0010
0000
1000
0000
0001
0010
0100
0000
1000
0001
1000
0001
,
1000
0100
0010
0001
1000
0000
0010
0100
0001
0000
1000
0000
0100
0010
0001
0000
,
0010
0001
0010
0001
1000
0100
0010
0001
0100
0000
0001
0100
0010
0000
1000
0000
,
0010
1000
0001
0000
1000
0100
1000
0100
0010
0001
1000
0010
0100
0000
0001
0100
,
0001
0000
0010
0000
0100
1000
0100
0000
0010
0100
0010
0100
1000
0100
0010
0001
,
1000
0000
0010
0000
0100
0000
0001
0000
0010
0000
0100
0000
0010
0100
0010
0100
,
0010
0001
1000
0100
1000
0000
0010
0000
0100
0000
0001
0000
1000
0000
0100
0000
,
1000
0010
1000
0010
0100
0001
1000
0100
0010
0000
0001
0000
1000
0000
0010
0000
,
0100
0000
0001
0000
0010
0100
0010
0100
1000
0100
0010
0001
1000
0000
0001
0000
,
0100
0000
0010
0000
1000
0000
0100
0000
1000
0010
1000
0010
0100
0001
1000
0100
,
1001
0000
0000
0000
1001
0000
1001
0000
0000
0000
1001
0000
1000
0001
1000
0001
,
0100
0001
1000
0010
0110
0000
0000
0000
0110
0000
0110
0000
0000
0000
0110
0000
,
0010
0100
0010
0100
0001
0010
0100
1000
1010
0000
0000
0000
1010
0000
1010
0000
,
0000
0000
1010
0000
0010
0100
0010
0100
0010
1000
0001
0010
0011
0000
0000
0000
,
0011
0000
0011
0000
0000
0000
0011
0000
0010
0001
0010
0001
1000
0100
0010
0001
,
0100
0000
0001
0100
0001
0000
0010
0000
0100
1000
0100
0000
0010
0001
0010
0001
,
1000
0010
0100
0001
1000
0000
0100
1000
0100
0000
0010
0000
0001
1000
0001
0000
,
1000
0010
1000
0010
0100
0001
1000
0100
0010
0000
0001
0010
0001
0000
1000
0000
,
0010
0100
0010
0000
1000
0010
1000
0010
0100
0001
1000
0100
0010
0000
0001
1000
,
0001
0000
1000
0000
0100
1000
0100
0000
0010
0100
0010
0100
1000
0010
0100
0001
,
0010
0001
1000
0001
0010
0001
0100
0001
1000
0100
1000
0001
0010
0001
1000
0100
,
0010
0001
0010
0001
1000
0100
0001
0100
0010
0100
0001
0100
1000
0001
0100
0001
,
1000
0100
1000
0010
0100
0001
0100
0001
1000
0010
0001
0010
0100
0010
0001
0010
,
1000
0001
1000
0100
0010
0001
1000
0010
0100
0001
0100
0001
0010
0001
1000
0001
,
0010
0001
0100
0001
1000
0100
0010
0100
0010
0001
1000
0001
1000
0010
1000
0010
,
1001
0000
0000
0000
;
